MasterClass. com – Usher Teaches the Art of Performance [Tutorial, ENG]

By | March 26, 2019

 

Posted by : MasterClass.com
Country : United States
Theme : stage skills
Type of handing out material : Video Tutorial
Duration : 02:29:17
Year of release : 2015
Language : English
Translation : None

Description :
Currently over 65 million copies of his albums are sold worldwide. Won seven Grammy awards, four World Music Awards, four American Music Awards and nineteen Billboard Music Awards. The owner of his own record company US Records. He ranks 21 in the list of the most successful musicians according to Billboard, and also second place, behind Eminem, in the list of the most successful musicians of the 2000s. In this course, he shows technical skills, career lessons and tips that he used in his successful career for 25 years.
16 video lessons
One of the most commercially successful R & B musicians of our generation, African-American, teaches how to raise your level of excellence.
Workbook to the course
The course is provided with a downloadable workbook, which contains the main lesson theses and additional materials.



Quality : HDRip
Format : MP4
Video codec : H.264
Audio Codec : AAC
Video : AVC, 1920×1080, 16: 9, 3 750 kb / s, 23.976 fps
Audio : AAC, 128 kbps, 44.1 kHz, 2 channels

MediaInfo

General
Complete name: MasterClass MasterClass – Usher Teaches the Art of Performance 08 – Preparing_for_Live_Performance.mp4
Format: MPEG-4
Format profile: Base Media
Codec ID: isom (isom / iso2 / avc1 / mp41)
File size: 202 MiB
Duration: 7 min 16 s
Overall bit rate: 3 882 kb / s
Writing application: Lavf57.4.100
Video
ID: 1
Format: AVC
Format / Info: Advanced Video Codec
Format profile: High @ L4
Format settings, CABAC: Yes
Format settings, ReFrames: 4 frames
Codec ID: avc1
Codec ID / Info: Advanced Video Coding
Duration: 7 min 16 s
Bit rate: 3 750 kb / s
Width: 1 920 pixels
Height: 1,080 pixels
Display aspect ratio: 16: 9
Frame rate mode: Constant
Frame rate: 23.976 (23976/1000) FPS
Color space: YUV
Chroma subsampling: 4: 2: 0
Bit depth: 8 bits
Scan type: Progressive
Bits / (Pixel * Frame): 0.075
Stream size: 195 MiB (97%)
Writing library: x264 core 142 r2491 24e4fed
Encoding settings: cabac = 1 / ref = 2 / deblock = 1: 0: 0 / analyze = 0x3: 0x113 / me = hex / subme = 6 / psy = 1 / psy_rd = 1.00: 0.00 / mixed_ref = 1 / me_range = 16 / chroma_me = 1 / trellis = 0 / 8x8dct = 1 / cqm = 0 / deadzone = 21.11 / fast_pskip = 1 / chroma_qp_offset = -2 / threads = 12 / lookahead_threads = 2 / sliced_threads = 0 / nr = 0 / decimate = 1 / interlaced = 0 / bluray_compat = 0 / constrained_intra = 0 / bframes = 3 / b_pyramid = 2 / b_adapt = 1 / b_bias = 0 / direct = 3 / weightb = 1 / open_gop = 0 / weightp = 2 / keyint = 250 / keyint_min = 25 / scenecut = 40 / intra_refresh = 0 / rc_lookahead = 40 / rc = 2pass / mbtree = 1 / bitrate = 3750 / ratetol = 1.0 / qcomp = 0.60 / qpmin = 10 / qpmax = 51 / qpstep = 4 / cplxblur = 20.0 / qblur = 0.5 / ip_ratio = 1.41 / aq = 1: 1.00
Language: English
Audio
ID: 2
Format: AAC
Format / Info: Advanced Audio Codec
Format profile: LC
Codec ID: 40
Duration: 7 min 16 s
Duration_LastFrame: -5 ms
Bit rate mode: Constant
Bit rate: 128 kb / s
Channel (s): 2 channels
Channel positions: Front: LR
Sampling rate: 44.1 kHz
Frame rate: 43.066 FPS (1024 spf)
Compression mode: Lossy
Stream size: 6.66 MiB (3%)
Language: English
Default: Yes
Alternate group: 1











Leave a Reply

Your email address will not be published. Required fields are marked *

Comment moderation is enabled. Your comment may take some time to appear.