Masterclass. com – Herbie Hancock Teaches Jazz [Tutorial, ENG]

By | March 26, 2019

 

Posted by : Masterclass.com
Country : United States
Topic : music learning, jazz
Type of handing out material : Video Tutorial
Duration : 04:23:15
Year of release : 2017
Language : English
Translation : None

Description : Herbie Hancock’s jazz career began in the living room of his family, listening to favorite records and trying to play along. Now, he is one of the most famous musicians in the world. Join Herbie at the piano, share his approach to improvisation, composition and harmony. Access 10+ original piano transcriptions, including 5 exceptional solo performances.



Quality : HDRip
Format : MP4
Video codec : H.264
Audio Codec : AAC
Video : AVC, 1280×720, 16: 9, 2 935 kb / s, 23.976 fps
Audio : AAC, 132 kbps, 44.1 kHz, 2 channels

MediaInfo

Complete name: MasterClass – Herbie Hancock Teaches Jazz 13 Recomposing, Rearranging, Reinventing.mp4
Format: MPEG-4
Format profile: Base Media
Codec ID: isom (isom / iso2 / avc1 / mp41)
File size: 263 MiB
Duration: 11 min 58 s
Overall bit rate mode: Variable
Overall bit rate: 3,074 kb / s
Encoded date: UTC 1970-01-01 00:00:00
Tagged date: UTC 1970-01-01 00:00:00
Writing application: Lavf52.94.0
Video
ID: 1
Format: AVC
Format / Info: Advanced Video Codec
Format profile: [email protected]
Format settings, CABAC: Yes
Format settings, ReFrames: 2 frames
Codec ID: avc1
Codec ID / Info: Advanced Video Coding
Duration: 11 min 58 s
Duration_FirstFrame: -42 ms
Bit rate: 2 935 kb / s
Width: 1 280 pixels
Height: 720 pixels
Display aspect ratio: 16: 9
Frame rate mode: Variable
Frame rate: 23.976 (23976/1000) FPS
Minimum frame rate: 11.988 FPS
Maximum frame rate: 23.976 FPS
Color space: YUV
Chroma subsampling: 4: 2: 0
Bit depth: 8 bits
Scan type: Progressive
Bits / (Pixel * Frame): 0.133
Stream size: 251 MiB (95%)
Writing library: x264 core 112 r1834 a51816a
Encoding settings: cabac = 1 / ref = 1 / deblock = 1: 0: 0 / analyze = 0x1: 0 / me = dia / subme = 2 / psy = 1 / psy_rd = 0.00: 0.00 / mixed_ref = 0 / me_range = 16 / chroma_me = 1 / trellis = 0 / 8x8dct = 0 / cqm = 0 / deadzone = 21.11 / fast_pskip = 1 / chroma_qp_offset = 0 / threads = 4 / sliced_threads = 0 / nr = 0 / decimate = 1 / interlaced = 0 / constrained_intra = 0 / bframes = 3 / b_pyramid = 0 / b_adapt = 1 / b_bias = 0 / direct = 3 / weightb = 0 / open_gop = 0 / weightp = 2 / keyint = 250 / keyint_min = 25 / scenecut = 40 / intra_refresh = 0 / rc_lookahead = 40 / rc = abr / mbtree = 1 / bitrate = 2935 / ratetol = 1.0 / qcomp = 0.60 / qpmin = 10 / qpmax = 51 / qpstep = 4 / ip_ratio = 1.41 / aq = 1: 1.00
Encoded date: UTC 1970-01-01 00:00:00
Tagged date: UTC 1970-01-01 00:00:00
Audio
ID: 2
Format: AAC
Format / Info: Advanced Audio Codec
Format profile: LC
Codec ID: 40
Duration: 11 min 58 s
Bit rate mode: Variable
Bit rate: 132 kb / s
Channel (s): 2 channels
Channel positions: Front: LR
Sampling rate: 44.1 kHz
Frame rate: 43.066 FPS (1024 spf)
Compression mode: Lossy
Stream size: 11.5 MiB (4%)
Encoded date: UTC 1970-01-01 00:00:00
Tagged date: UTC 1970-01-01 00:00:00











Leave a Reply

Your email address will not be published. Required fields are marked *

Comment moderation is enabled. Your comment may take some time to appear.