MasterClass. com – deadmau5 Teaches Electronic Music Production [Tutorial, ENG]

By | March 26, 2019

 

Posted by : MasterClass.com
Country : United States
Theme : music, electronic music
Type of handing out material : Video Tutorial
Duration : 05:25:21
Year of release : 2016
Language : English
Translation : None

Description : Before becoming Dadmaus, all Joel wanted for Christmas was to disassemble old toasters. Now, in his masterclass, he parses his music. Joel will show you how he approaches melodies, mix and mastering to create unique sounds that you cannot find in standard samples packs. You will get not only his lessons, you will learn how to create your own music without spending money on multi-million equipment.
Deadmau5 talks about his experimental approach to creating hit music in more than 20 exclusive video lessons. Learn the techniques that turned deadmau5 from home musician into headliner festivals.

Course content

01.Introduction
Welcome to the deadmau5 studio. Meet the man behind the mau5head, and learn how to do electronic music production.
02.The deadmau5 Process: Theory
It’s all about experimentation. If you’re in the studio.
03.The deadmau5 Process: Practice
What does the music take?
04.Building Your Home Studio
Ready to start your own studio? Here’s the advice.
05.Developing Melodic Structures
You can’t use it.
06.Turning Melodies Into Arrangements
It is a combination of the bass parts and leads.
07.Introduction To Synthesized Sounds
It’s a chord pattern. It starts with the basics of synthesis.
08.Experimenting With Modular Synths
Don’t be intimidated by the wall of knobs and flashing lights. For deadmau5, modular synths are all about messing around and finding unexpected sounds. Watch how he builds his patches from scratch.
09.Digital Vs. Analog synths
It is a soundtrack. Hears of digital audio equipment.
10.Shaping Sounds With Effects And Processing
Learn how to deadmau5 presets, builds stereos images and fattens up to their basses using plug-ins and effects effects processors.
11.Beats: Part 1
The track of the electronic music track. For big, danceable grooves.
12.Beats: Part 2
It is a rhythmic trick to go into the snowcone.
13.Structuring Songs
You’ve got your chord
14.Remixes
Where does he look for other artists?
15.Mixing
It is a soundtrack. Joel for the mix.
16.Mastering
Unlike a lot of other artists, deadmau5 masters all of his music. Learn the basics of their approach to gain structure, EQing and limiting.
17.Mastering Case Study: Snowcone
Snowcone’s master chain and the track’s sound.
18.Starting Your Producing Career
It is a list of EDM artists who have been signing up for advertising.
19.Understanding the Music Business
Major labels can be major headaches, or worse. Here’s some of what Joel’s learned about
20.On Stage: The Music
It keeps you and your audience engaged. Here is how to take your music from the studio to the stage.
21.On Stage: The Technical Side
EDM artist learning and managing lots of gear. These are the techniques for keeping things running smoothly on the road.
22.On Stage: The Show
Performance music. For deadmau5, they’ll never forget.
23.Closing
You’ve made it through the class and learned all types of skills. Joel’s advice.

 



Quality : WEBRip
Format : MP4
Video codec : H.264
Audio Codec : AAC
Video : AVC, 1920×1080, 16: 9, 1 236 kb / s, 23.976 FPS
Audio : AAC, 196 kb / s, 44.1 kHz, 2 channels

MediaInfo

General
Complete name: Masterclass MasterClass – deadmau5 Teaches Electronic Music Production 06.Turning Melodies Into Arrangements.mp4
Format: MPEG-4
Format profile: Base Media / Version 2
Codec ID: mp42 (isom / iso2 / avc1 / mp41)
File size: 156 MiB
Duration: 15 min 8 s
Overall bit rate mode: Variable
Overall bit rate: 1,439 kb / s
Encoded date: UTC 2018-08-14 03:32:23
Tagged date: UTC 2018-08-14 03:32:23
Writing application: HandBrake 1.0.7 2017040900
Video
ID: 1
Format: AVC
Format / Info: Advanced Video Codec
Format profile: Main @ L4
Format settings, CABAC: Yes
Format settings, ReFrames: 4 frames
Codec ID: avc1
Codec ID / Info: Advanced Video Coding
Duration: 15 min 8 s
Bit rate: 1,236 kb / s
Width: 1 920 pixels
Height: 1,080 pixels
Display aspect ratio: 16: 9
Frame rate mode: Variable
Frame rate: 23.976 (23976/1000) FPS
Minimum frame rate: 11.345 FPS
Maximum frame rate: 23.981 FPS
Color space: YUV
Chroma subsampling: 4: 2: 0
Bit depth: 8 bits
Scan type: Progressive
Bits / (Pixel * Frame): 0.025
Stream size: 134 MiB (86%)
Writing library: x264 core 148 r2708 86b7198
Encoding settings: cabac = 1 / ref = 2 / deblock = 1: 0: 0 / analyze = 0x1: 0x111 / me = hex / subme = 6 / psy = 1 / psy_rd = 1.00: 0.00 / mixed_ref = 1 / me_range = 16 / chroma_me = 1 / trellis = 1 / 8x8dct = 0 / cqm = 0 / deadzone = 21.11 / fast_pskip = 1 / chroma_qp_offset = -2 / threads = 6 / lookahead_threads = 1 / sliced_threads = 0 / nr = 0 / decimate = 1 / interlaced = 0 / bluray_compat = 0 / constrained_intra = 0 / bframes = 3 / b_pyramid = 2 / b_adapt = 1 / b_bias = 0 / direct = 1 / weightb = 1 / open_gop = 0 / weightp = 1 / keyint = 240 / keyint_min = 24 / scenecut = 40 / intra_refresh = 0 / rc_lookahead = 30 / rc = crf / mbtree = 1 / crf = 22.0 / qcomp = 0.60 / qpmin = 0 / qpmax = 69 / qpstep = 4 / vbv_maxrate = 20000 / vbv_bufsize = 25000 / crf_max = 0.0 / nal_hrd = none / filler = 0 / ip_ratio = 1.40 / aq = 1: 1.00
Encoded date: UTC 2018-08-14 03:32:23
Tagged date: UTC 2018-08-14 03:32:23
Color range: Limited
Color primaries: BT.709
Transfer characteristics: BT.709
Matrix coefficients: BT.709
Audio
ID: 2
Format: AAC
Format / Info: Advanced Audio Codec
Format profile: LC
Codec ID: 40
Duration: 15 min 8 s
Bit rate mode: Variable
Bit rate: 196 kb / s
Channel (s): 2 channels
Channel positions: Front: LR
Sampling rate: 44.1 kHz
Frame rate: 43.066 FPS (1024 spf)
Compression mode: Lossy
Stream size: 21.2 MiB (14%)
Title: Stereo / Stereo
Default: Yes
Alternate group: 1
Encoded date: UTC 2018-08-14 03:32:23
Tagged date: UTC 2018-08-14 03:32:23

Leave a Reply

Your email address will not be published. Required fields are marked *

Comment moderation is enabled. Your comment may take some time to appear.